<?xml version="1.0" standalone="no"?>
<!DOCTYPE svg PUBLIC "-//W3C//DTD SVG 1.1//EN" "http://www.w3.org/Graphics/SVG/1.1/DTD/svg11.dtd" >
<svg xmlns="http://www.w3.org/2000/svg">
<metadata>Generated by IcoMoon</metadata>
<defs>
<font id="hrbiz-icons" horiz-adv-x="1024">
<font-face units-per-em="1024" ascent="960" descent="-64" />
<missing-glyph horiz-adv-x="1024" />
<glyph unicode="&#x20;" horiz-adv-x="512" d="" />
<glyph unicode="&#xe900;" glyph-name="circle-close" d="M512 896c-249.6 0-448-198.4-448-448s198.4-448 448-448c249.6 0 448 198.4 448 448s-198.4 448-448 448zM512 64c-211.2 0-384 172.8-384 384s172.8 384 384 384c211.2 0 384-172.8 384-384s-172.8-384-384-384zM684.8 224l-172.8 172.8-172.8-172.8-51.2 51.2 172.8 172.8-172.8 172.8 51.2 51.2 172.8-172.8 172.8 172.8 51.2-51.2-172.8-172.8 172.8-172.8-51.2-51.2z" />
<glyph unicode="&#xe901;" glyph-name="circle-check" d="M512 960c-282.768 0-512-229.232-512-512 0-282.784 229.232-512 512-512 282.784 0 512 229.216 512 512 0 282.768-229.216 512-512 512zM512-1.009c-247.024 0-448 201.985-448 449.010s200.976 448 448 448 448-200.977 448-448c0-247.022-200.976-449.010-448-449.010zM716.335 635.345l-300.4-302.288-135.28 135.28c-12.496 12.496-32.753 12.496-45.264 0-12.496-12.496-12.496-32.753 0-45.249l158.384-158.399c12.496-12.481 32.751-12.481 45.264 0 1.44 1.44 2.673 3.008 3.793 4.639l318.783 320.753c12.481 12.496 12.481 32.753 0 45.264-12.513 12.496-32.768 12.496-45.281 0z" />
<glyph unicode="&#xe902;" glyph-name="menu" d="M195.2 672h646.4c16 0 32 6.4 41.6 16 12.8 12.8 16 25.6 16 41.6s-6.4 32-16 41.6c-12.8 12.8-25.6 16-41.6 16h-646.4c-16 0-32-6.4-41.6-16-12.8-9.6-19.2-22.4-19.2-38.4s6.4-32 16-41.6c16-12.8 28.8-19.2 44.8-19.2zM844.8 243.2h-649.6c-16 0-32-6.4-41.6-16s-16-25.6-16-41.6c0-16 6.4-32 16-41.6 12.8-12.8 25.6-16 41.6-16h646.4c16 0 32 6.4 41.6 16s16 25.6 16 41.6-6.4 32-16 41.6c-9.6 9.6-22.4 16-38.4 16zM844.8 518.4h-649.6c-16 0-32-6.4-41.6-16-12.8-12.8-16-25.6-16-41.6s6.4-32 16-41.6c12.8-12.8 25.6-16 41.6-16h646.4c16 0 32 6.4 41.6 16 12.8 12.8 16 25.6 16 41.6s-6.4 32-16 41.6c-9.6 9.6-22.4 16-38.4 16z" />
<glyph unicode="&#xe903;" glyph-name="close" d="M816 752c-6.4 6.4-16 12.8-25.6 16s-19.2 6.4-28.8 6.4c-9.6 0-19.2-3.2-28.8-6.4s-19.2-9.6-25.6-16v0l-185.6-185.6-188.8 188.8c-6.4 6.4-16 12.8-25.6 16s-19.2 3.2-28.8 3.2c-9.6 0-19.2-3.2-28.8-6.4s-19.2-6.4-25.6-16-12.8-16-19.2-25.6c-3.2-9.6-3.2-19.2-3.2-28.8s3.2-19.2 6.4-28.8c3.2-9.6 6.4-19.2 16-25.6l185.6-185.6-185.6-188.8c-6.4-6.4-12.8-16-16-25.6s-6.4-19.2-6.4-28.8c0-9.6 3.2-19.2 6.4-28.8 3.2-12.8 6.4-19.2 16-25.6 6.4-6.4 16-12.8 25.6-16s19.2-6.4 28.8-6.4c9.6 0 19.2 3.2 28.8 6.4s19.2 9.6 25.6 16l185.6 188.8 188.8-188.8c6.4-6.4 16-12.8 25.6-16s19.2-6.4 28.8-6.4c9.6 0 19.2 3.2 28.8 6.4s19.2 9.6 25.6 16c6.4 6.4 12.8 16 16 25.6s6.4 19.2 6.4 28.8c0 9.6-3.2 19.2-6.4 28.8s-9.6 19.2-16 25.6l-188.8 188.8 188.8 185.6c32 28.8 32 80 0 108.8z" />
<glyph unicode="&#xe904;" glyph-name="add-calendar" d="M736 704h-64v32c0 8.487-3.373 16.626-9.373 22.628s-14.141 9.372-22.627 9.372c-8.486 0-16.627-3.372-22.627-9.372s-9.373-14.14-9.373-22.628v-32h-192v32c0 8.487-3.373 16.626-9.373 22.628s-14.141 9.372-22.627 9.372c-8.486 0-16.627-3.372-22.627-9.372s-9.373-14.14-9.373-22.628v-32h-64c-25.461 0-49.879-10.114-67.882-28.118s-28.118-42.423-28.118-67.882v-384c0-25.459 10.114-49.878 28.118-67.882s42.421-28.118 67.882-28.118h448c25.459 0 49.878 10.115 67.882 28.118s28.118 42.422 28.118 67.882v384c0 25.459-10.115 49.879-28.118 67.882s-42.422 28.118-67.882 28.118zM768 224c0-8.486-3.373-16.627-9.373-22.627s-14.141-9.373-22.627-9.373h-448c-8.487 0-16.626 3.373-22.628 9.373s-9.372 14.141-9.372 22.627v224h512v-224zM768 512h-512v96c0 8.486 3.372 16.627 9.372 22.627s14.14 9.373 22.628 9.373h64v-32c0-8.486 3.373-16.627 9.373-22.627s14.141-9.373 22.627-9.373c8.486 0 16.627 3.373 22.627 9.373s9.373 14.141 9.373 22.627v32h192v-32c0-8.486 3.373-16.627 9.373-22.627s14.141-9.373 22.627-9.373c8.486 0 16.627 3.373 22.627 9.373s9.373 14.141 9.373 22.627v32h64c8.486 0 16.627-3.373 22.627-9.373s9.373-14.141 9.373-22.627v-96z" />
<glyph unicode="&#xe905;" glyph-name="arrow-button" d="M667.885 441.907l-182.573-176.746c-12.618-12.214-33.024-12.214-45.507 0l-30.339 29.373c-12.621 12.214-12.621 31.968 0 44.054l129.411 125.28-129.411 125.283c-12.621 12.214-12.621 31.968 0 44.054l30.205 29.631c12.618 12.216 33.024 12.216 45.507 0l182.573-176.745c12.755-12.214 12.755-31.971 0.134-44.186z" />
<glyph unicode="&#xe906;" glyph-name="arrow-more" d="M704.701 413.998l-272.002-272c-18.8-18.801-49.2-18.801-67.8 0l-45.2 45.199c-18.8 18.801-18.8 49.203 0 67.804l192.802 192.799-192.802 192.8c-18.8 18.8-18.8 49.2 0 67.8l45 45.6c18.8 18.8 49.2 18.8 67.8 0l272.002-272c19-18.8 19-49.201 0.2-68.002z" />
<glyph unicode="&#xe907;" glyph-name="arrrow-breadcrumb" d="M726.073 407.496l-306.417-306.417c-21.178-21.178-55.425-21.178-76.378 0l-50.919 50.919c-21.178 21.178-21.178 55.425 0 76.378l217.196 217.196-217.196 217.196c-21.178 21.178-21.178 55.425 0 76.378l50.694 51.37c21.178 21.179 55.425 21.179 76.378 0l306.417-306.417c21.405-21.178 21.405-55.425 0.225-76.603z" />
<glyph unicode="&#xe908;" glyph-name="check" d="M800 600.637l-359.363-359.363-216.637 216.637 71.363 71.363 145.274-145.274 288 288 71.363-71.363z" />
<glyph unicode="&#xe909;" glyph-name="eye-hide" d="M232 703.003l32.997 32.997 543.003-543.005-32.995-32.995-543.005 543.003zM525.014 543.875l90.854-90.854c-1.264 23.686-11.242 46.070-28.013 62.842-16.774 16.774-39.155 26.752-62.842 28.013zM514.992 352.144l-90.854 90.858c1.264-23.686 11.238-46.070 28.013-62.845 16.771-16.771 39.155-26.749 62.842-28.013zM520 304.016c-22.154 0-44.006 5.107-63.862 14.931s-37.178 24.096-50.618 41.709c-13.44 17.61-22.637 38.083-26.87 59.83-4.237 21.744-3.398 44.173 2.451 65.539l-103.606 103.619c-42.315-38.758-82.635-89.338-117.495-141.629 39.63-66 93.84-133.859 150.3-172.771 64.769-44.608 135.195-67.229 209.339-67.229 40.522-0.029 80.736 6.976 118.861 20.701l-80.413 80.4c-12.41-3.398-25.219-5.114-38.086-5.101zM520 592.016c22.154 0 44.006-5.11 63.862-14.934s37.178-24.096 50.618-41.706c13.44-17.61 22.637-38.086 26.87-59.83 4.237-21.744 3.398-44.173-2.451-65.539l105.99-105.99c43.725 39.376 84.106 92.339 115.11 144-39.571 65.146-94.349 132.838-151.77 172.23-65.581 44.969-135.766 67.769-208.592 67.769-40.070-0.058-79.808-7.318-117.312-21.435l79.664-79.665c12.384 3.389 25.168 5.107 38.010 5.101z" />
<glyph unicode="&#xe90a;" glyph-name="eye-show" d="M520 290c-32.042 0-63.363 9.501-90.003 27.302s-47.405 43.101-59.664 72.704c-12.262 29.6-15.472 62.173-9.219 93.597 6.25 31.427 21.68 60.291 44.336 82.947s51.52 38.086 82.947 44.336c31.424 6.253 63.997 3.043 93.597-9.219 29.603-12.259 54.902-33.024 72.704-59.664s27.302-57.962 27.302-90.003c0-42.966-17.069-84.17-47.45-114.55s-71.584-47.45-114.55-47.45zM520 704c-252 0-360-252-360-252s108-252 360-252c252 0 360 252 360 252s-108 252-360 252zM520 362.006c49.706 0 90 40.294 90 90s-40.294 90-90 90c-49.706 0-90-40.294-90-90s40.294-90 90-90z" />
<glyph unicode="&#xe90b;" glyph-name="mail-checkbox-checked" d="M452.267 268.8l300.798 300.8-59.73 59.733-241.068-241.068-121.6 121.602-59.734-59.733 181.334-181.334zM213.334 64c-23.467 0-43.563 8.361-60.288 25.088s-25.074 36.808-25.046 60.247v597.331c0 23.467 8.362 43.563 25.088 60.288s36.807 25.074 60.246 25.046h597.331c23.47 0 43.566-8.362 60.288-25.088 16.727-16.726 25.078-36.807 25.047-60.246v-597.331c0-23.47-8.361-43.566-25.088-60.288-16.727-16.727-36.808-25.078-60.247-25.047h-597.331z" />
<glyph unicode="&#xe90c;" glyph-name="mail-checkbox" d="M793.6 64h-563.2c-56.32 0-102.4 46.080-102.4 102.4v563.2c0 56.32 46.080 102.4 102.4 102.4h563.2c56.32 0 102.4-46.080 102.4-102.4v-563.2c0-56.32-46.080-102.4-102.4-102.4zM230.4 729.6v0-563.2h563.2v563.2h-563.2z" />
<glyph unicode="&#xe90d;" glyph-name="toggle" d="M740.731 664.4h-442.024c-33.706 0-54.186-37.12-35.84-65.706l221.014-347.306c3.848-6.083 9.171-11.090 15.475-14.561s13.383-5.289 20.576-5.289c7.199 0 14.275 1.818 20.582 5.289 6.303 3.471 11.628 8.479 15.473 14.561l220.585 347.306c4.163 6.435 6.513 13.875 6.799 21.534s-1.5 15.254-5.171 21.982c-3.666 6.729-9.088 12.342-15.683 16.247s-14.121 5.959-21.786 5.944z" />
<glyph unicode="&#xe90e;" glyph-name="external-link" horiz-adv-x="975" d="M548.571 684.714c-16.857 0-30.476-13.619-30.476-30.476s13.619-30.476 30.476-30.476h78.76l-191.713-191.809c-11.905-11.903-11.905-31.237 0-43.145 11.905-11.903 31.238-11.903 43.143 0l191.714 191.811v-78.762c0-16.857 13.619-30.476 30.476-30.476s30.476 13.619 30.476 30.476v152.381c0 16.857-13.619 30.476-30.476 30.476h-152.381zM320 654.238c-42.095 0-76.19-34.095-76.19-76.19v-304.761c0-42.096 34.095-76.19 76.19-76.19h304.762c42.096 0 76.19 34.094 76.19 76.19v106.667c0 16.857-13.619 30.476-30.476 30.476s-30.476-13.619-30.476-30.476v-106.667c0-8.382-6.856-15.238-15.238-15.238h-304.762c-8.381 0-15.238 6.856-15.238 15.238v304.761c0 8.381 6.857 15.238 15.238 15.238h106.667c16.857 0 30.476 13.619 30.476 30.476s-13.619 30.476-30.476 30.476h-106.667z" />
<glyph unicode="&#xe90f;" glyph-name="consultation" horiz-adv-x="1280" d="M383.1 288c151.011 0 273.371 101.314 273.371 226.286s-122.361 226.286-273.371 226.286c-151.012 0-273.372-101.314-273.372-226.286 0-49.627 19.32-95.528 52.046-132.944-4.6-12.083-11.434-22.755-18.663-31.755-6.309-7.973-12.749-14.142-17.48-18.384-2.366-2.059-4.337-3.73-5.651-4.758-0.657-0.516-1.183-0.9-1.446-1.031l-0.263-0.256c-7.229-5.27-10.383-14.526-7.492-22.886 2.892-8.357 10.909-14.27 19.977-14.27 28.652 0 57.566 7.201 81.617 16.073 12.092 4.498 23.394 9.512 33.251 14.654 40.349-19.54 87.269-30.727 137.475-30.727zM698.529 514.286c0-144.384-130.245-253.158-284.544-266.141 31.938-95.66 137.871-165.859 263.515-165.859 50.205 0 97.126 11.187 137.607 30.727 9.856-5.142 21.029-10.156 33.119-14.654 24.049-8.872 52.966-16.073 81.616-16.073 9.070 0 17.218 5.786 19.975 14.27 2.761 8.488-0.26 17.744-7.621 23.014l-0.263 0.26c-0.263 0.256-0.786 0.512-1.445 1.028-1.313 1.028-3.288 2.571-5.65 4.758-4.732 4.242-11.173 10.412-17.481 18.384-7.23 9-14.062 19.8-18.662 31.759 32.724 37.285 52.045 83.185 52.045 132.941 0 119.314-111.583 217.157-253.133 225.642 0.527-6.557 0.79-13.243 0.79-19.928l0.132-0.128z" />
<glyph unicode="&#xe910;" glyph-name="salary" d="M533.376 130.735c223.859 0 405.291 147.392 405.291 329.297 0 181.908-181.431 329.301-405.291 329.301-223.862 0-405.294-147.393-405.294-329.301 0-71.398 28.022-137.417 75.517-191.403-3.008-38.788-18.048-73.301-33.88-99.584-8.708-14.566-17.574-26.278-24.064-34.197-3.325-3.955-5.858-6.963-7.758-9.024-0.95-0.947-1.583-1.741-2.058-2.214l-0.475-0.474c-7.282-7.283-9.341-18.048-5.383-27.55 3.958-9.498 13.14-15.671 23.431-15.671 45.437 0 91.191 14.089 129.187 30.554 36.254 15.834 67.126 34.671 85.966 48.444 50.345-18.206 106.071-28.335 164.81-28.335v0.158zM565.039 624.684v-22.006c11.874-1.9 23.113-4.591 33.404-7.441 16.939-4.433 26.914-21.848 22.481-38.788s-21.85-26.912-38.788-22.481c-17.412 4.591-34.197 7.916-49.395 8.233-12.506 0.158-25.331-2.85-34.035-7.916-7.603-4.433-9.818-8.866-9.818-14.724 0-2.85 0.158-5.542 8.393-10.607 9.971-6.016 24.538-10.607 44.8-16.623l1.109-0.316c17.732-5.385 40.529-12.19 58.735-23.748 20.425-12.826 38.473-33.724 38.946-65.86 0.478-33.088-16.623-57.152-39.262-71.245-11.396-7.121-24.064-11.554-36.727-14.246v-21.534c0-17.412-14.251-31.663-31.663-31.663-17.417 0-31.667 14.251-31.667 31.663v23.117c-16.303 3.482-31.663 8.708-44.642 13.299-3.328 1.109-6.494 2.214-9.66 3.324-16.623 5.542-25.488 23.433-19.947 40.055s23.433 25.489 40.055 19.947c3.955-1.267 7.757-2.692 11.396-3.802 21.534-7.279 37.999-12.821 55.569-13.453 13.615-0.478 26.125 2.53 33.882 7.437 6.49 3.959 9.498 8.708 9.34 16.627 0 4.591-1.267 7.915-9.34 12.979-9.975 6.332-24.38 10.927-44.331 16.943l-2.688 0.789c-17.259 5.227-38.946 11.716-56.363 22.165-20.105 12.19-38.947 32.452-39.105 64.435-0.158 33.404 18.68 56.518 40.846 69.501 10.923 6.491 22.955 10.766 35.149 13.457v22.481c0 17.415 14.246 31.663 31.663 31.663 17.412 0 31.663-14.249 31.663-31.663z" />
<glyph unicode="&#xe911;" glyph-name="location" horiz-adv-x="1152" d="M536.841 324.105c47.868 59.797 156.868 204.881 156.868 286.295 0 98.861-80.077 178.933-178.935 178.933-98.861 0-178.933-80.073-178.933-178.933 0-81.414 108.998-226.498 156.866-286.295 11.482-14.315 32.802-14.315 44.134 0zM705.634 39.305l216.064 86.485c13.568 5.367 22.515 18.637 22.515 33.25v403.645c0 25.349-25.498 42.646-49.058 33.252l-172.966-69.187c-0.747-1.792-1.493-3.729-2.24-5.517-4.322-10.142-9.092-20.429-14.315-30.72v-451.209zM107.849 510.050c-13.569-5.521-22.516-18.641-22.516-33.254v-403.793c0-25.348 25.498-42.645 49.058-33.25l189.52 75.895v374.865c-5.219 10.291-9.99 20.578-14.315 30.72-8.35 19.681-15.508 40.855-19.087 61.879l-182.661-73.062zM657.92 409.101c-30.566-46.673-63.074-88.87-83.802-114.816-30.566-38.174-88.124-38.174-118.69 0-20.727 25.946-53.234 68.143-83.802 114.816v-289.873l286.293-81.86v371.733z" />
<glyph unicode="&#xe912;" glyph-name="star" horiz-adv-x="1152" d="M559.751 856.938c-8.81 18.284-27.425 29.919-47.872 29.919-20.443 0-38.894-11.635-47.868-29.919l-106.877-219.904-238.686-35.238c-19.946-2.992-36.568-16.954-42.718-36.070-6.15-19.112-1.163-40.225 13.131-54.352l173.197-171.366-40.889-242.18c-3.324-19.946 4.987-40.221 21.442-52.023s38.23-13.297 56.181-3.825l213.256 113.858 213.255-113.858c17.949-9.472 39.724-8.144 56.181 3.825 16.453 11.966 24.766 32.077 21.442 52.023l-41.055 242.18 173.195 171.366c14.296 14.128 19.449 35.24 13.133 54.352-6.316 19.116-22.773 33.078-42.719 36.070l-238.852 35.238-106.876 219.904z" />
<glyph unicode="&#xe913;" glyph-name="map" d="M640 64l-256 89.6-198.4-76.8q-21.333-8.533-39.467 4.8t-18.133 35.733v597.333q0 13.867 8 24.533t21.867 16l226.133 76.8 256-89.6 198.4 76.8q21.333 8.533 39.467-4.8t18.133-35.733v-597.333q0-13.867-8-24.533t-21.867-16l-226.133-76.8zM597.333 168.533v499.2l-170.667 59.733v-499.2l170.667-59.733zM682.667 168.533l128 42.667v505.6l-128-49.067v-499.2zM213.333 179.2l128 49.067v499.2l-128-42.667v-505.6zM682.667 667.733v0zM341.333 727.467v0z" />
<glyph unicode="&#xe950;" glyph-name="quote" d="M157.48 691.583c59.861 64.896 150.442 97.792 269.184 97.792h42.666v-120.277l-34.304-6.869c-58.453-11.691-99.114-34.688-120.874-68.437-11.354-18.182-17.793-39-18.688-60.417h131.2c11.316 0 22.168-4.495 30.17-12.497s12.497-18.854 12.497-30.17v-298.664c0-47.066-38.272-85.338-85.333-85.338h-256c-11.316 0-22.168 4.499-30.17 12.499s-12.497 18.854-12.497 30.17v213.332l0.128 124.544c-0.384 4.736-8.49 116.949 72.022 204.33zM853.331 106.707h-256.001c-11.316 0-22.168 4.499-30.17 12.499s-12.497 18.854-12.497 30.17v213.332l0.128 124.544c-0.384 4.736-8.491 116.949 72.021 204.33 59.862 64.896 150.441 97.792 269.187 97.792h42.662v-120.277l-34.304-6.869c-58.451-11.691-99.11-34.688-120.87-68.437-11.354-18.182-17.798-39-18.688-60.417h131.2c11.315 0 22.163-4.495 30.17-12.497 8-8.001 12.493-18.854 12.493-30.17v-298.664c0-47.066-38.272-85.338-85.331-85.338z" />
<glyph unicode="&#xe960;" glyph-name="sns-x" d="M517.689 493.511l-145.067 207.644h-76.8l179.2-256 22.756-31.289 153.6-221.867h76.8l-187.733 270.222zM512 960c-281.6 0-512-230.4-512-512s230.4-512 512-512 512 230.4 512 512-230.4 512-512 512zM625.778 157.867l-156.444 224.711-193.422-224.711h-48.356l221.867 258.844-221.867 321.422h170.667l147.911-213.333 184.889 213.333h51.2l-210.489-247.467 224.711-332.8h-170.667z" />
<glyph unicode="&#xe961;" glyph-name="sns-facebook" d="M512 960c-281.6 0-512-230.4-512-512 0-238.933 164.978-440.889 389.689-497.778v341.333h-108.089v156.444h105.244v68.267c0 119.467 36.978 196.267 116.622 230.4 36.978 17.067 79.644 22.756 133.689 22.756v0 0c17.067 0 36.978-2.844 59.733-2.844 19.911-2.844 39.822-5.689 51.2-8.533v-142.222c-11.378 0-34.133 2.844-59.733 2.844-85.333 0-116.622-31.289-116.622-113.778v-56.889h167.822l-28.444-156.444h-139.378v-352.711c256 31.289 452.267 247.467 452.267 509.156 0 281.6-230.4 512-512 512z" />
<glyph unicode="&#xe962;" glyph-name="sns-line" d="M512 960c-281.6 0-512-230.4-512-512s230.4-512 512-512 512 230.4 512 512-230.4 512-512 512zM779.378 305.778c-71.111-82.489-233.244-182.044-267.378-199.111-36.978-14.222-31.289 8.533-28.444 17.067 0 5.689 5.689 28.444 5.689 28.444 0 8.533 2.844 22.756 0 31.289s-19.911 14.222-31.289 17.067c-167.822 25.6-287.289 139.378-287.289 275.911 0 153.6 153.6 278.756 341.333 278.756s341.333-125.156 341.333-278.756c0-59.733-22.756-113.778-73.956-170.667v0zM739.556 388.267c2.844 0 5.689 2.844 5.689 5.689v25.6c0 2.844-2.844 5.689-5.689 5.689h-65.422v25.6h65.422c2.844 0 5.689 2.844 5.689 5.689v25.6c0 2.844-2.844 5.689-5.689 5.689h-65.422v25.6h65.422c2.844 0 5.689 2.844 5.689 5.689v25.6c0 2.844-2.844 5.689-5.689 5.689h-96.711c-2.844 0-5.689-2.844-5.689-5.689v0 0-147.911c0-2.844 2.844-5.689 5.689-5.689v0h96.711zM384 388.267c2.844 0 5.689 2.844 5.689 5.689v25.6c0 2.844-2.844 5.689-5.689 5.689h-65.422v119.467c0 2.844-2.844 5.689-5.689 5.689h-25.6c-2.844 0-5.689-2.844-5.689-5.689v-147.911c0-2.844 2.844-5.689 5.689-5.689v0h96.711zM443.733 550.4h-25.6c-2.844 0-5.689-2.844-5.689-5.689v-147.911c0-2.844 2.844-5.689 5.689-5.689h25.6c2.844 0 5.689 2.844 5.689 5.689v147.911c0 2.844-2.844 5.689-5.689 5.689zM608.711 550.4h-25.6c-2.844 0-5.689-2.844-5.689-5.689v-88.178l-68.267 91.022c0 0 0 0 0 0s0 0 0 0 0 0 0 0 0 0 0 0 0 0 0 0 0 0 0 0 0 0 0 0 0 0 0 0 0 0 0 0 0 0 0 0 0 0 0 0 0 0 0 0 0 0 0 0 0 0 0 0 0 0 0 0 0 0 0 0 0 0 0 0 0 0 0 0 0 0 0 0h-22.756c-2.844 0-5.689-2.844-5.689-5.689v-147.911c0-2.844 2.844-5.689 5.689-5.689h25.6c2.844 0 5.689 2.844 5.689 5.689v88.178l68.267-91.022c0 0 0 0 2.844-2.844 0 0 0 0 0 0s0 0 0 0 0 0 0 0 0 0 0 0 0 0 0 0 0 0 0 0 0 0 0 0 0 0 0 0 0 0 2.844 0h22.756c2.844 0 5.689 2.844 5.689 5.689v147.911c-5.689 5.689-8.533 8.533-11.378 8.533z" />
<glyph unicode="&#xe9a0;" glyph-name="article" d="M780.8 806.4h179.2v-672c0-35.645-14.16-69.83-39.366-95.034-25.203-25.206-59.389-39.366-95.034-39.366h-627.2c-35.645 0-69.83 14.16-95.035 39.366-25.205 25.203-39.365 59.389-39.365 95.034v761.6h716.8v-89.6zM780.8 716.8v-582.4c0-11.882 4.72-23.277 13.12-31.677 8.403-8.403 19.798-13.123 31.68-13.123s23.277 4.72 31.677 13.123c8.403 8.4 13.123 19.795 13.123 31.677v582.4h-89.6zM153.6 806.4v-672c0-11.882 4.72-23.277 13.122-31.677 8.402-8.403 19.797-13.123 31.678-13.123h500.416c-5.082 14.387-7.658 29.542-7.616 44.8v672h-537.6zM243.2 448h358.4v-89.6h-358.4v89.6zM243.2 268.8h358.4v-89.6h-358.4v89.6zM243.2 716.8h358.4v-179.2h-358.4v179.2z" />
<glyph unicode="&#xe9a1;" glyph-name="assignment" d="M874.106 661.244c-14.63-14.631-28.832-28.832-29.264-43.033-1.29-13.77 13.341-27.971 27.11-41.312 20.656-21.514 40.883-40.88 40.022-61.965s-22.81-43.034-44.755-64.55l-177.725-178.154-61.104 61.107 182.886 182.458-41.312 41.312-61.104-60.678-161.373 161.373 165.245 164.814c16.784 16.783 44.755 16.783 60.675 0l100.698-100.696c16.781-15.922 16.781-43.893 0-60.676zM112 221.882l411.389 411.821 161.373-161.37-411.39-411.821h-161.372v161.37z" />
<glyph unicode="&#xe9a2;" glyph-name="event" d="M835.555 80h-647.111v508.445h647.111zM696.89 912v-92.444h-369.779v92.444h-92.444v-92.444h-46.222c-50.844 0-92.444-41.6-92.444-92.444v-647.111c0-24.518 9.74-48.032 27.076-65.37 17.337-17.334 40.85-27.075 65.368-27.075h647.111c51.306 0 92.445 41.139 92.445 92.445v647.111c0 24.518-9.741 48.031-27.075 65.368-17.338 17.337-40.851 27.076-65.37 27.076h-46.221v92.444zM460.23 403.555h-166.861l134.97-97.53-51.309-159.466 134.97 98.454 134.97-98.454-51.77 159.005 134.97 97.99h-166.4l-51.77 159.005-51.77-159.005z" />
<glyph unicode="&#xe9a3;" glyph-name="lesson" d="M509.558 232.64c-5.357 0-10.621 1.398-15.27 4.058l-269.337 153.936c-2.34 1.35-4.996 2.064-7.698 2.061-2.702 0-5.357-0.714-7.696-2.067-2.339-1.35-4.281-3.296-5.629-5.638s-2.057-4.998-2.053-7.699v-144.65c-0.004-5.491 1.461-10.886 4.244-15.619s6.782-8.637 11.583-11.306l276.916-153.84c4.57-2.541 9.712-3.872 14.941-3.872s10.371 1.331 14.941 3.872l276.915 153.84c4.8 2.669 8.8 6.573 11.584 11.306 2.781 4.733 4.246 10.128 4.243 15.619v144.65c0.003 2.701-0.704 5.357-2.054 7.699-1.347 2.342-3.29 4.288-5.629 5.638-2.339 1.354-4.992 2.067-7.696 2.067-2.701 0.003-5.357-0.71-7.696-2.061l-269.341-153.936c-4.65-2.659-9.91-4.058-15.267-4.058zM970.931 573.971v0.211c-0.496 4.877-2.154 9.565-4.829 13.674-2.675 4.106-6.294 7.517-10.557 9.942l-430.755 246.146c-4.65 2.658-9.914 4.056-15.267 4.056-5.357 0-10.621-1.398-15.27-4.056l-430.756-246.146c-4.708-2.691-8.62-6.579-11.342-11.27s-4.155-10.019-4.155-15.44c0-5.424 1.433-10.752 4.155-15.44 2.722-4.691 6.634-8.579 11.342-11.27l430.756-246.147c4.65-2.659 9.914-4.058 15.27-4.058 5.354 0 10.618 1.398 15.267 4.058l378.989 216.55c0.586 0.339 1.251 0.515 1.926 0.515 0.678 0 1.341-0.179 1.926-0.518s1.069-0.829 1.408-1.414c0.336-0.586 0.512-1.251 0.509-1.93v-277.933c0-16.557 12.73-30.768 29.286-31.597 4.16-0.198 8.32 0.448 12.221 1.901 3.904 1.453 7.472 3.686 10.486 6.56 3.014 2.87 5.414 6.326 7.056 10.157 1.642 3.827 2.486 7.949 2.486 12.115v338.451c-0.003 0.963-0.054 1.926-0.154 2.883z" />
<glyph unicode="&#xe9a4;" glyph-name="overview" d="M512 896c-97.565-0.106-191.104-37.226-260.093-103.215s-107.796-155.46-107.907-248.785c0-301.2 334.544-528.682 348.806-538.202 5.626-3.766 12.326-5.789 19.194-5.789s13.568 2.022 19.194 5.789c14.262 9.52 348.806 237.002 348.806 538.202-0.112 93.325-38.918 182.795-107.907 248.785s-162.528 103.109-260.093 103.215zM512 672c26.467 0 52.339-7.507 74.346-21.572 22.006-14.063 39.158-34.057 49.286-57.446s12.778-49.123 7.616-73.955c-5.165-24.829-17.91-47.635-36.624-65.536s-42.56-30.093-68.518-35.030c-25.958-4.941-52.864-2.406-77.315 7.283-24.451 9.686-45.354 26.093-60.058 47.142s-22.55 45.798-22.55 71.114c0 33.949 14.099 66.506 39.194 90.509 25.098 24.005 59.133 37.491 94.624 37.491z" />
<glyph unicode="&#xe9a5;" glyph-name="people" d="M512 864c55.165 0 108.070-21.914 147.078-60.922s60.922-91.913 60.922-147.078c0-55.165-21.914-108.070-60.922-147.078s-91.914-60.922-147.078-60.922c-55.165 0-108.070 21.914-147.078 60.922s-60.922 91.914-60.922 147.078c0 55.165 21.914 108.071 60.922 147.078s91.914 60.922 147.078 60.922zM512 344c229.84 0 416-93.082 416-208v-104h-832v104c0 114.918 186.16 208 416 208z" />
<glyph unicode="&#xe9a6;" glyph-name="schedule" d="M375.834 864c-22.71 0-40-18.979-40-41.006v-33.824h-175.834c-35.957 0-64-30.182-64-66.012v-625.145c0-35.83 28.043-66.013 64-66.013h672c35.958 0 64 30.182 64 66.013v625.145c0 35.821-28.045 66-64 66l-176.166-0.001v33.837c0 22.027-17.293 41.006-40 41.006-22.71 0-40-18.979-40-41.006v-33.824h-160v33.824c0 22.027-17.293 41.006-40 41.006zM176 114.013v593.145h159.834v-26.152c0-22.026 17.29-41.006 40-41.006 22.707 0 40 18.98 40 41.006v26.14h160v-26.14c0-22.027 17.29-41.006 40-41.006 22.707 0 40 18.979 40 41.006v26.14h160.166v-593.133h-640zM280 564.106c-22.697 0-40-18.992-40-41.005v-50.013c0-22.016 17.303-41.005 40-41.005h48c22.698 0 40 18.989 40 41.005v50.013c0 22.032-17.309 41.005-40 41.005h-48zM472 564.106c-22.698 0-40-18.992-40-41.005v-50.013c0-22.016 17.302-41.005 40-41.005h48c22.698 0 40 18.989 40 41.005v50.013c0 22.032-17.309 41.005-40 41.005h-48zM664 564.106c-22.698 0-40-18.992-40-41.005v-50.013c0-22.016 17.302-41.005 40-41.005h48c22.698 0 40 18.989 40 41.005v50.013c0 22.013-17.302 41.005-40 41.005h-48zM280 364.070c-22.697 0-40-18.992-40-41.005v-50.013c0-22.032 17.308-41.005 40-41.005h48c22.691 0 40 18.973 40 41.005v50.013c0 21.997-17.296 41.005-40 41.005h-48zM472 364.070c-22.698 0-40-18.992-40-41.005v-50.013c0-22.032 17.309-41.005 40-41.005h48c22.691 0 40 18.973 40 41.005v50.013c0 21.997-17.296 41.005-40 41.005h-48zM664 364.070c-22.698 0-40-18.992-40-41.005v-50.013c0-22.048 17.312-41.005 40-41.005h48c22.691 0 40 18.973 40 41.005v50.013c0 22.013-17.302 41.005-40 41.005h-48z" />
<glyph unicode="&#xe9a7;" glyph-name="task" d="M177.259 576.147v102.472c0 14.382 6.292 27.865 18.876 40.449s26.068 18.876 40.45 18.876h458.427c8.989 0 17.078-1.798 24.269-5.393l91.686 78.202c-39.552 26.966-78.202 40.45-115.955 40.45h-458.427c-50.337 0-91.685-16.18-124.045-48.54s-48.539-73.708-48.539-124.045v-458.427c0-46.742 16.629-87.19 49.888-121.347 33.258-34.16 74.157-51.238 122.697-51.238h458.427c48.541 0 89.437 17.078 122.698 51.238 33.258 34.157 49.888 74.605 49.888 121.347v188.765l-113.261-102.474v-86.291c0-14.381-6.291-27.866-18.877-40.448-12.582-12.586-26.067-18.877-40.448-18.877h-458.427c-14.382 0-27.865 6.291-40.45 18.877-12.584 12.582-18.876 26.067-18.876 40.448v355.955zM976 651.55l-80 85.856-28.403-29.124-113.261-97.079-218.426-191.459-140.224 177.978-91.686-67.418 207.642-283.146 242.694 213.034 113.261 99.776 108.403 91.582z" />
<glyph unicode="&#xe9a8;" glyph-name="video" d="M844.8 822.398h-665.6c-45.885 0-83.2-37.315-83.2-83.2v-582.398c0-45.888 37.315-83.203 83.2-83.203h665.6c45.885 0 83.2 37.315 83.2 83.203v582.398c0 45.885-37.315 83.2-83.2 83.2zM844.842 572.8c-0.042 0-0.042 0 0 0h-19.344l-110.947 166.398h130.25l0.042-166.398zM657.6 323.2l-228.8-124.803v249.603l228.8-124.8zM617.498 572.8l-110.947 166.398h107.994l110.947-166.398h-107.994zM517.491 572.8h-107.994l-110.947 166.398h107.994l110.947-166.398zM179.2 739.198h19.344l110.947-166.398h-130.291v166.398z" />
<glyph unicode="&#xe9a9;" glyph-name="mail" d="M204 128c-20.9 0-38.798 7.446-53.694 22.342s-22.331 32.784-22.306 53.658v456c0 20.9 7.448 38.798 22.344 53.694s32.781 22.331 53.656 22.306h608c20.899 0 38.797-7.448 53.693-22.344s22.333-32.781 22.307-53.656v-456c0-20.899-7.45-38.797-22.346-53.693s-32.781-22.333-53.654-22.307h-608zM508 394l-304 190v-380h608v380l-304-190zM508 470l304 190h-608l304-190zM204 584v0z" />
<glyph unicode="&#xe9aa;" glyph-name="clipboard" horiz-adv-x="993" d="M624.485 746.667h58.182c51.346 0 93.091-43.485 93.091-96.97v-484.848c0-53.484-41.745-96.97-93.091-96.97h-372.365c-51.346 0-93.091 43.486-93.091 96.97v484.848c0 53.485 41.745 96.97 93.091 96.97h72.146c10.761 55.303 57.744 96.97 114.036 96.97 56.289 0 103.272-41.667 114.036-96.97h13.964zM310.302 673.939c-12.8 0-23.273-10.909-23.273-24.242v-484.848c0-13.334 10.473-24.241 23.273-24.241h372.365c12.8 0 23.273 10.907 23.273 24.241v484.848c0 13.333-10.473 24.242-23.273 24.242h-23.273v-36.363c0-20.151-15.565-36.364-34.909-36.364h-256c-19.347 0-34.909 16.213-34.909 36.364v36.363h-23.274zM496.485 686.061c9.256 0 18.137 3.831 24.685 10.651 6.544 6.82 10.224 16.069 10.224 25.713s-3.68 18.893-10.224 25.713c-6.547 6.82-15.428 10.651-24.685 10.651-9.259 0-18.137-3.831-24.685-10.651s-10.224-16.069-10.224-25.713c0-9.644 3.677-18.893 10.224-25.713s15.425-10.651 24.685-10.651z" />
<glyph unicode="&#xe9ab;" glyph-name="book" horiz-adv-x="993" d="M579.314 534.863v70.336c22.755 9.654 46.027 16.896 69.818 21.721 23.788 4.828 48.786 7.239 74.988 7.239 17.929 0 35.514-1.378 52.752-4.136 17.24-2.759 34.133-6.206 50.685-10.342v-66.2c-16.552 6.206-33.274 10.861-50.167 13.964s-34.652 4.655-53.27 4.655c-26.202 0-51.371-3.274-75.506-9.824s-47.234-15.689-69.3-27.412zM579.314 307.309v70.336c22.755 9.654 46.027 16.893 69.818 21.721 23.788 4.825 48.786 7.239 74.988 7.239 17.929 0 35.514-1.378 52.752-4.136 17.24-2.759 34.133-6.206 50.685-10.346v-66.197c-16.552 6.206-33.274 10.861-50.167 13.964s-34.652 4.655-53.27 4.655c-26.202 0-51.371-3.103-75.506-9.309s-47.234-15.515-69.3-27.927zM579.314 421.087v70.333c22.755 9.657 46.027 16.896 69.818 21.721 23.788 4.828 48.786 7.242 74.988 7.242 17.929 0 35.514-1.381 52.752-4.139 17.24-2.755 34.133-6.206 50.685-10.342v-66.197c-16.552 6.206-33.274 10.861-50.167 13.964s-34.652 4.655-53.27 4.655c-26.202 0-51.371-3.277-75.506-9.827s-47.234-15.686-69.3-27.409zM269.010 282.484c32.41 0 63.957-3.621 94.643-10.861s61.198-18.1 91.539-32.582v407.53c-28.272 16.551-58.269 28.963-89.988 37.238-31.722 8.275-63.785 12.412-96.195 12.412-24.824 0-49.476-2.414-73.955-7.24s-48.097-12.067-70.853-21.721v-409.601c24.135 8.276 48.097 14.482 71.887 18.618s48.097 6.206 72.921 6.206zM537.938 239.042c30.341 14.482 60.857 25.342 91.539 32.582 30.686 7.239 62.234 10.861 94.642 10.861 24.824 0 49.133-2.070 72.921-6.206 23.791-4.136 47.753-10.342 71.888-18.618v409.601c-22.755 9.654-46.372 16.894-70.851 21.721s-49.133 7.24-73.958 7.24c-32.408 0-64.472-4.137-96.194-12.412-31.719-8.275-61.716-20.687-89.988-37.238v-407.53zM496.566 116.99c-33.1 26.202-68.956 46.545-107.573 61.024-38.614 14.482-78.609 21.721-119.983 21.721-28.962 0-57.406-3.792-85.333-11.376-27.927-7.587-54.648-18.274-80.162-32.067-14.481-7.584-28.445-7.239-41.891 1.036-13.447 8.273-20.17 20.34-20.17 36.2v498.555c0 7.585 1.896 14.825 5.689 21.721s9.482 12.067 17.067 15.515c31.72 16.549 64.819 28.962 99.297 37.236s69.646 12.412 105.503 12.412c39.995 0 79.128-5.172 117.398-15.515s74.991-25.859 110.158-46.545c35.167 20.687 71.888 36.202 110.158 46.545s77.405 15.515 117.397 15.515c35.859 0 71.025-4.138 105.503-12.412s67.578-20.687 99.297-37.236c7.587-3.448 13.275-8.62 17.067-15.515 3.795-6.896 5.691-14.136 5.691-21.721v-498.555c0-15.86-6.724-27.927-20.17-36.2-13.449-8.276-27.412-8.62-41.891-1.036-25.516 13.793-52.236 24.48-80.164 32.067-27.927 7.584-56.37 11.376-85.333 11.376-41.373 0-81.368-7.239-119.982-21.721-38.617-14.479-74.473-34.822-107.573-61.024z" />
<glyph unicode="&#xe9ac;" glyph-name="download" horiz-adv-x="993" d="M785.067 333.188c-21.721 0-40.339-18.618-40.339-40.339v-93.091h-496.485v93.091c0 21.721-18.618 40.339-40.339 40.339s-40.339-18.618-40.339-40.339v-93.091c0-21.721 9.309-43.442 24.824-58.958s37.236-24.824 58.958-24.824h496.485c21.721 0 43.442 9.309 58.958 24.824s24.824 34.133 24.824 58.958v93.091c0 21.721-18.618 40.339-40.339 40.339zM465.455 311.467c15.515-15.515 43.442-15.515 58.958 0l164.461 164.461c15.515 15.515 15.515 43.442 0 58.958s-43.442 15.515-58.958 0l-93.091-93.091v316.509c0 21.721-18.618 43.442-43.442 43.442s-43.442-18.618-43.442-43.442v-313.406l-93.091 93.091c-15.515 15.515-43.442 15.515-58.958 0s-15.515-43.442 0-58.958l164.461-164.461z" />
</font>
</defs>
</svg>
